Welcome To warez-bb download forum PPl]
 
HomeRegisterLog in

Share | 
 

 Transformers 3 Dark Of The Moon SCAM:2011

View previous topic View next topic Go down 
AuthorMessage
ghafoorahmad



Posts : 249
Join date : 2011-06-21

PostSubject: Transformers 3 Dark Of The Moon SCAM:2011   Thu Jun 30, 2011 12:37 pm

Transformers 3 Dark Of The Moon SCAM:2011






Quote :
Transformers 3 Dark Of The Moon SCAM-2011
INFO:
http://www.imdb.com/title/tt1399103/
The Autobots learn of a Cybertronian spacecraft hidden on the Moon, and race against the Decepticons to reach it and to learn its secrets


Quote :
Format : MPEG-PS
File size : 801 MiB
Duration : 2h 23mn
Overall bit rate : 780 Kbps

Video
ID : 224 (0xE0)
Format : MPEG Video
Format version : Version 2
Format settings, BVOP : Yes
Format settings, Matrix : Default
Duration : 2h 23mn
Bit rate mode : Constant
Bit rate : 700 Kbps
Nominal bit rate : 1 150 Kbps
Width : 352 pixels
Height : 288 pixels
Display aspect ratio : 1.222
Frame rate : 25.000 fps
Standard : PAL
Color space : YUV
Bit depth : 8 bits
Scan type : Progressive
Compression mode : Lossy
Bits/(Pixel*Frame) : 0.276
Stream size : 719 MiB (90%)

Audio
ID : 192 (0xC0)
Format : MPEG Audio
Format version : Version 1
Format profile : Layer 2
Duration : 2h 23mn
Bit rate mode : Constant
Bit rate : 64.0 Kbps
Channel(s) : 2 channels
Sampling rate : 48.0 KHz
Compression mode : Lossy
Stream size : 65.7 MiB (8%)


Code:

http://www.wupload.com/file/38410875/Transformers_3__Dark_Of_The_Moon.mpg
Back to top Go down
 
Transformers 3 Dark Of The Moon SCAM:2011
View previous topic View next topic Back to top 
Page 1 of 1
 Similar topics
-
» XOUNTS Style Contest 2011
» Brooklyn NY Spring 2011 Photo Contest
» Mr. Knockaround 2011... it could be you!
» VIP Tickets to CAP 2011
» Transformers on Blu-Ray Sweepstakes *usa only*

Permissions in this forum:You cannot reply to topics in this forum
Warez-BB :: Movies/TV show-
Jump to: