Welcome To warez-bb download forum PPl]
 
HomeRegisterLog in

Share | 
 

 X Men First Class 2011 R5 LiNE -IMAGiNE +700/400MB

View previous topic View next topic Go down 
AuthorMessage
ghafoorahmad



Posts : 249
Join date : 2011-06-21

PostSubject: X Men First Class 2011 R5 LiNE -IMAGiNE +700/400MB   Mon Jul 11, 2011 11:47 pm

X Men First Class 2011 R5 LiNE -IMAGiNE +700/400MB
ghafoorahmad wrote:
Unlimited Backup Ready ! Don't Worry About Dead Links ! Just Reply Or PM About Dead Link !
I Will Update The Links !!!

I Think RS+Single Link Deserve A "THANKS"




X-Men First Class 2011 R5 LiNE READNFO XViD - IMAGiNE





Code:
 X-Men First Class 2011 R5 LiNE READNFO XViD - IMAGiNE
********************************************************************************************************************

Ripper ...........: IMAGiNE                                      IMDB Rating.......: 8.1/10                           
Video Codec.......: XVID                                        Release Date......: 07/07/11
Audio Codec.......: MP3                                          Theatre Date......: 03/06/11
Audio Bitrate.....: 128                                          Runtime.......: 2h 06mn
Subtitles.........: ENGLISH WHEN NEEDED                          Language..........: ENGLISH
Resolution......: 720 x 288                                      IMDb URL..........:  http://www.imdb.com/title/tt1270798/ [rate:no votes] 58,417 votes
 
 


DETAILS:

Video
ID                              : 0
Format                          : MPEG-4 Visual
Format profile                  : Advanced Simple@L5
Format settings, BVOP            : 2
Format settings, QPel            : No
Format settings, GMC            : No warppoints
Format settings, Matrix          : Default (MPEG)
Muxing mode                      : Packed bitstream
Codec ID                        : XVID
Codec ID/Hint                    : XviD
Duration                        : 2h 6mn
Bit rate                        : 1 771 Kbps
Width                            : 720 pixels
Height                          : 288 pixels
Display aspect ratio            : 2.500
Frame rate                      : 25.000 fps
Color space                      : YUV
Chroma subsampling              : 4:2:0
Bit depth                        : 8 bits
Scan type                        : Progressive
Compression mode                : Lossy
Bits/(Pixel*Frame)              : 0.342
Stream size                      : 1.56 GiB (93%)
Writing library                  : XviD 61

Audio
ID                              : 1
Format                          : MPEG Audio
Format version                  : Version 1
Format profile                  : Layer 3
Mode                            : Joint stereo
Mode extension                  : MS Stereo
Codec ID                        : 55
Codec ID/Hint                    : MP3
Duration                        : 2h 6mn
Bit rate mode                    : Constant
Bit rate                        : 128 Kbps
Channel(s)                      : 2 channels
Sampling rate                    : 44.1 KHz
Compression mode                : Lossy
Stream size                      : 116 MiB (7%)
Alignment                        : Split accross interleaves
Interleave, duration            : 40 ms (1.00 video frame)
Writing library                  : LAME3.98r



SOURCES:

VIDEO: .............. X-Men.First.Class.DVD.R5.RELIZLAB Thanks Mate
AUDIO: .............. Thanx Matey

NOTES:

IMAGiNE bringing you another release..........
X-Men First Class R5........
Ok here we are with a nice R5 of X-Men First Class...
Source was very nice so not much work was needed there....
We made a script to crop resize and sharpen.....
Then hardcoded subs for all the foreign language
The audio is nice LiNE we filtered
synced and muxed to our encode
Enjoy Folks!
















Code:
WUpload (1LinK)
http://www.wupload.com/file/48866049




Code:
WUpload
http://www.wupload.com/file/48866017
http://www.wupload.com/file/48866018
http://www.wupload.com/file/48866019
http://www.wupload.com/file/48866020


Code:
No Password , Enjoy

------------------------------------------------------------------

X Men First Class 2011 R5 XviD-BiDA





Code:
  Release: R5.XviD-BiDA

Size: 700 MB

Audio: LiNE [eng] [EP1C big thx]

Video: Russian, thx

VIDEO:  [XVID]  640x272  24bpp  24.000 fps  611.2 kbps (74.6 kbyte/s)

AUDIO: 44100 Hz, 2 ch, s16le, 128.0 kbit/9.07% (ratio: 16000->176400)

Cut off first 40 seconds since there was no audio, nothing much, only some producer`s stuff , and also 2 or 3 small cuts during the movie. Watchable and sync, i guess.

Have fun, greetings from Poland

I know, only 700 MB, but, well - don`t like, don`t get it and wait for something better













Code:
Subs for who asked for it :
http://subscene.com/english/X-Men-First-Class/subtitle-453885.aspx

Code:
WUpload (1LinK)
http://www.wupload.com/file/48866065

Code:
Wupload
http://www.wupload.com/file/48866072
http://www.wupload.com/file/48866073


Code:
No Password , Enjoy

---------------------------------------------------

X-MEN: FIRST CLASS (2011) R5 LiNE [FILTERED]





Code:
[TITLE].........................[ X-Men: First Class
[DIRECTOR]......................[ Matthew Vaughn
[RELEASE DATE]..................[ 3 June 2011 (USA)
[FORMAT]:.......................[ Matroska (MKV)
[GENRE]:........................[ Action | Adventure | Drama
[NO OF CDs].....................[ 1
[FILE SIZE]:....................[ 500MB
[RESOLUTION]:...................[ 720x304
[LANGUAGE ]:....................[ English
[SUBTITLES]:....................[ Go here and search: subscene.com
[ORIGINAL RUNTIME]:.............[ 01:51:22
[RELEASE RUNTIME]:..............[ 01:51:22
[ENCODER]:......................[ ShAaNiG
[SOURCE]:.......................[ R5 LiNE [BiDA]











Code:
WUpload
http://www.wupload.com/file/48866095


Code:
No Password , Enjoy
==================================================

13.Assassins.2011.ENG.BDrip.XViD[801mb-1LinK]
ghafoorahmad wrote:
'
    13.Assassins.2011.ENG.BDrip.XViD-nCODE {ENGLiSH AUDiO, 801mb}







Code:
13.Assassins.2011.ENG.BDrip.XViD-nCODE

Format                          : AVI
Format/Info                      : Audio Video Interleave
File size                        : 801 MiB
Duration                        : 2h 5mn
Overall bit rate                : 895 Kbps
Writing application              : Nandub v1.0rc2
Writing library                  : Nandub build 1853/release
Comment                          : ~RiP BY nCODE~

Video
ID                              : 0
Format                          : MPEG-4 Visual
Format profile                  : Advanced Simple@L5
Format settings, BVOP            : 2
Format settings, QPel            : No
Format settings, GMC            : No warppoints
Format settings, Matrix          : Default (H.263)
Codec ID                        : XVID
Codec ID/Hint                    : XviD
Duration                        : 2h 5mn
Bit rate                        : 758 Kbps
Width                            : 640 pixels
Height                          : 272 pixels
Display aspect ratio            : 2.35:1
Frame rate                      : 23.976 fps
Color space                      : YUV
Chroma subsampling              : 4:2:0
Bit depth                        : 8 bits
Scan type                        : Progressive
Compression mode                : Lossy
Bits/(Pixel*Frame)              : 0.182
Stream size                      : 679 MiB (85%)
Writing library                  : XviD 1.2.1 (UTC 2008-12-04)

Audio
ID                              : 1
Format                          : MPEG Audio
Format version                  : Version 1
Format profile                  : Layer 3
Mode                            : Joint stereo
Mode extension                  : MS Stereo
Codec ID                        : 55
Codec ID/Hint                    : MP3
Duration                        : 2h 5mn
Bit rate mode                    : Constant
Bit rate                        : 128 Kbps
Channel(s)                      : 2 channels
Sampling rate                    : 48.0 KHz
Compression mode                : Lossy
Stream size                      : 115 MiB (14%)
Alignment                        : Split accross interleaves
Interleave, duration            : 42 ms (1.00 video frame)
Interleave, preload duration    : 500 ms
Writing library                  : LAME3.98r
Encoding settings                : -m j -V 4 -q 2 -lowpass 17 -b 128

ripped from Blueray,(dual audio- Japanese & English)
i chose to rip this one with the English audio (dubbed)
muxed with Nandub for standalone compatibility.hope you njoy!!

please download nCODE movies from nCODE accounts
Beware of fakers!

Quote :
if any of you guys would rather me rip this movie to this size but with Japanese audio
and hard English subtitles from the retail Blueray just leave a comment, id happily rip one for you




























http://www.wupload.com/file/48866236




Back to top Go down
 
X Men First Class 2011 R5 LiNE -IMAGiNE +700/400MB
View previous topic View next topic Back to top 
Page 1 of 1
 Similar topics
-
» Creating a Sweet Navigation
» Class 4 Softswitch For Rent
» Position
» Cannot locate the class Select in web driver
» XOUNTS Style Contest 2011

Permissions in this forum:You cannot reply to topics in this forum
Warez-BB :: Movies/TV show-
Jump to: