Welcome To warez-bb download forum PPl]
 
HomeRegisterLog in

Share | 
 

 X-Men First Class 2011 R5 LiNE XViD - IMAGiNE+700M

View previous topic View next topic Go down 
AuthorMessage
ghafoorahmad



Posts : 249
Join date : 2011-06-21

PostSubject: X-Men First Class 2011 R5 LiNE XViD - IMAGiNE+700M   Tue Jul 12, 2011 12:12 am

X-Men First Class 2011 R5 LiNE XViD - IMAGiNE+700M
ghafoorahmad wrote:


Find Dead Link Just Reply In The Topic Or PM Me.I Will Update The Links ASAP

If Like It Then This Deserve A Thanks.

X-Men First Class 2011 R5 LiNE READNFO XViD - IMAGiNE




Code:
********************************************************************************************************************                               
                          X-Men First Class 2011 R5 LiNE READNFO XViD - IMAGiNE
 ********************************************************************************************************************

 Ripper ...........: IMAGiNE                                      IMDB Rating.......: 8.1/10                           
 Video Codec.......: XVID                                        Release Date......: 07/07/11
 Audio Codec.......: MP3                                          Theatre Date......: 03/06/11
 Audio Bitrate.....: 128                                          Runtime.......: 2h 06mn
 Subtitles.........: ENGLISH WHEN NEEDED                          Language..........: ENGLISH
 Resolution......: 720 x 288                                      IMDb URL..........: http://www.imdb.com/title/tt1270798/


DETAILS:

 Video
 ID                              : 0
 Format                          : MPEG-4 Visual
 Format profile                  : Advanced Simple@L5
 Format settings, BVOP            : 2
 Format settings, QPel            : No
 Format settings, GMC            : No warppoints
 Format settings, Matrix          : Default (MPEG)
 Muxing mode                      : Packed bitstream
 Codec ID                        : XVID
 Codec ID/Hint                    : XviD
 Duration                        : 2h 6mn
 Bit rate                        : 1 771 Kbps
 Width                            : 720 pixels
 Height                          : 288 pixels
 Display aspect ratio            : 2.500
 Frame rate                      : 25.000 fps
 Color space                      : YUV
 Chroma subsampling              : 4:2:0
 Bit depth                        : 8 bits
 Scan type                        : Progressive
 Compression mode                : Lossy
 Bits/(Pixel*Frame)              : 0.342
 Stream size                      : 1.56 GiB (93%)
 Writing library                  : XviD 61

 Audio
 ID                              : 1
 Format                          : MPEG Audio
 Format version                  : Version 1
 Format profile                  : Layer 3
 Mode                            : Joint stereo
 Mode extension                  : MS Stereo
 Codec ID                        : 55
 Codec ID/Hint                    : MP3
 Duration                        : 2h 6mn
 Bit rate mode                    : Constant
 Bit rate                        : 128 Kbps
 Channel(s)                      : 2 channels
 Sampling rate                    : 44.1 KHz
 Compression mode                : Lossy
 Stream size                      : 116 MiB (7%)
 Alignment                        : Split accross interleaves
 Interleave, duration            : 40 ms (1.00 video frame)
 Writing library                  : LAME3.98r



SOURCES:

 VIDEO: .............. X-Men.First.Class.DVD.R5.RELIZLAB Thanks Mate
 AUDIO: .............. Thanx Matey

NOTES:

 IMAGiNE bringing you another release..........
 X-Men First Class R5........
 Ok here we are with a nice R5 of X-Men First Class...
 Source was very nice so not much work was needed there....
 We made a script to crop resize and sharpen.....
 Then hardcoded subs for all the foreign language
 The audio is nice LiNE we filtered
 synced and muxed to our encode
 Enjoy Folks!




















Single Links

Code:
WUpload (1LiNK)
http://www.wupload.com/file/46916580

Code:
WUpload
http://www.wupload.com/file/48866663
http://www.wupload.com/file/48866664
http://www.wupload.com/file/48866665
http://www.wupload.com/file/48866666
http://www.wupload.com/file/48866667
http://www.wupload.com/file/48866654

X-Men First Class 2011 R5 AC3 H264-CRYS




Code:
X-Men First Class 2011 R5 AC3 H264 CRYS

 General Information:


 Complete name : X Men First Class 2011 R5 AC3 H264 CRYS
 Source : R5 DVD9
 Format : MKV / AVC
 Video Codec : H264
 File size : 697 MiB
 Duration : 2h 9mn
 Overall bit rate : 749 Kbps
 Width : 720 pixels
 Height : 304 pixels
 Display aspect ratio : 2.35:1
 Frame rate : 23.976 fps
 Subtitle : Romanian

 Audio :
 Source  : EP1C
 Format : AC-3
 Bit rate mode : Constant
 Bit rate : 128 Kbps
 Channel(s) : 2 channels
 Channel positions : L R
 Sampling rate : 48.0 KHz
 Resolution : 16 bits

 Release Notes:
 Plot :

 Before Charles Xavier and Erik Lensherr took the names Professor X and Magneto, they were two young men discovering their powers for the first time. Before they were archenemies, they were closest of friends, working together, with other Mutants (some familiar, some new), to stop the greatest threat the world has ever known. In the process, a rift between them opened, which began the eternal war between Magneto ‘s Brotherhood and Professor X ‘s X-MEN.

 Cast:
 James McAvoy  ... Charles Xavier
 Laurence Belcher  ... Charles Xavier (12 Years)
 Michael Fassbender  ... Erik Lehnsherr / Magneto
 Bill Milner  ... Young Erik
 Kevin Bacon  ... Sebastian Shaw
 Rose Byrne  ... Moira MacTaggert
 Jennifer Lawrence  ... Raven / Mystique

 NOTES!
 Works with all DVD Players and Compatible > PS3  XBOX 360.

 Gratitude and Respect to:
 IMAGiNE, ELEKTRI4KA, TOXiC-iNK, Noir, FLAWL3SS, ViSiON, Rx, CiNEDUB, ADDICTED,EP1C
 and all our kind friends past and present.








Single Links

Code:
WUpload (1LiNK)
http://www.wupload.com/file/48866879

Code:
WUpload
http://www.wupload.com/file/48866893
http://www.wupload.com/file/48866894
http://www.wupload.com/file/48866895
http://www.wupload.com/file/48866896

LINKS ARE INTERCHANGEABLE

Backups Already Taken. Find Dead Links Feel Free Reply Here

SINGLE Extraction And 10% Recovery Record Included!

CLICK ON MY "WWW" TO CHECK ALL UPLOADS DONE BY ME

Like My Thread? Want to Support My Work?
Donate Some Rapids - 09BA3335CB2534F12B05EFE8DC9CABC4
Saying " Thank You " Is Better Way To Support Me

PLEASE SAY THANK YOU - IT WONT TAKE MUCH TIME AND IT WILL KEEP THE TOPIC ALIVE
Back to top Go down
 
X-Men First Class 2011 R5 LiNE XViD - IMAGiNE+700M
View previous topic View next topic Back to top 
Page 1 of 1
 Similar topics
-
» Creating a Sweet Navigation
» Class 4 Softswitch For Rent
» Position
» Cannot locate the class Select in web driver
» XOUNTS Style Contest 2011

Permissions in this forum:You cannot reply to topics in this forum
Warez-BB :: Movies/TV show-
Jump to: