Welcome To warez-bb download forum PPl]
 
HomeRegisterLog in

Share | 
 

 Bad Teacher 2011 TS XViD - IMAGiNE

View previous topic View next topic Go down 
AuthorMessage
ghafoorahmad



Posts : 249
Join date : 2011-06-21

PostSubject: Bad Teacher 2011 TS XViD - IMAGiNE   Tue Jul 12, 2011 12:16 am

[quote="ghafoorahmad"]Unlimited Backup Ready ! Don't Worry About Dead Links ! Just Reply Or PM About Dead Link !
I Will Update The Links !!!

I Think RS/MU+Single Link Deserve A "THANKS"




Bad Teacher 2011 TS XViD - IMAGiNE





Code:
Bad Teacher 2011 TS XViD - IMAGiNE
********************************************************************************************************************

Ripper ...........:IMAGiNE                                        IMDB Rating.......:6.1/10                           
Video Codec.......:XVID                                            Release Date......:08/07/11
Audio Codec.......:MP3                                            Theatre Date......:24/06/11
Audio Bitrate.....:128                                            Runtime...........:1h 28mn
Subtitles.........:NIL                                            Language..........:ENGLISH
Resolution........:720  x 384                                      IMDb URL..........:http://www.imdb.com/title/tt1284575/


DETAILS:

Video
ID                              : 0
Format                          : MPEG-4 Visual
Format profile                  : Advanced Simple@L5
Format settings, BVOP            : 2
Format settings, QPel            : No
Format settings, GMC            : No warppoints
Format settings, Matrix          : Default (MPEG)
Muxing mode                      : Packed bitstream
Codec ID                        : XVID
Codec ID/Hint                    : XviD
Duration                        : 1h 28mn
Bit rate                        : 2 091 Kbps
Width                            : 720 pixels
Height                          : 384 pixels
Display aspect ratio            : 1.875
Frame rate                      : 25.000 fps
Color space                      : YUV
Chroma subsampling              : 4:2:0
Bit depth                        : 8 bits
Scan type                        : Progressive
Compression mode                : Lossy
Bits/(Pixel*Frame)              : 0.303
Stream size                      : 1.29 GiB (94%)
Writing library                  : XviD 61

Audio
ID                              : 1
Format                          : MPEG Audio
Format version                  : Version 1
Format profile                  : Layer 3
Mode                            : Joint stereo
Mode extension                  : MS Stereo
Codec ID                        : 55
Codec ID/Hint                    : MP3
Duration                        : 1h 28mn
Bit rate mode                    : Constant
Bit rate                        : 128 Kbps
Channel(s)                      : 2 channels
Sampling rate                    : 44.1 KHz
Compression mode                : Lossy
Stream size                      : 80.8 MiB (6%)
Alignment                        : Split accross interleaves
Interleave, duration            : 40 ms (1.00 video frame)
Writing library                  : LAME3.98r


SOURCES:

VIDEO: .............. Ochen.plohaya.ychilka.D.2011.TS..avi ... Thanks
AUDIO: .............. Thanks Matey


NOTES:

IMAGiNE bringing you another release..........
Bad Teacher 2011 TS....
Here we are with our encode of this movie for you all..
Now for the video we just made a script
to tone down the yellow adjust rgb and black levels
and saturation along with a sharpen filter
With the audio it was just a case
of syncing the audio to our encode...











Code:
WUpload (1LinK)
http://www.wupload.com/file/48866964

Code:
WUpload
http://www.wupload.com/file/48866990
http://www.wupload.com/file/48866991
http://www.wupload.com/file/48866989



Code:
No Password , Enjoy
Back to top Go down
 
Bad Teacher 2011 TS XViD - IMAGiNE
View previous topic View next topic Back to top 
Page 1 of 1
 Similar topics
-
» XOUNTS Style Contest 2011
» Brooklyn NY Spring 2011 Photo Contest
» Mr. Knockaround 2011... it could be you!
» VIP Tickets to CAP 2011
» Aerosoles Teacher Appreciation Week

Permissions in this forum:You cannot reply to topics in this forum
Warez-BB :: Movies/TV show-
Jump to: