Welcome To warez-bb download forum PPl]
 
HomeRegisterLog in

Share | 
 

 BRiDESMAiDS 2011 TS IMAGiNE + 700mb [1LinK]

View previous topic View next topic Go down 
AuthorMessage
ghafoorahmad



Posts : 249
Join date : 2011-06-21

PostSubject: BRiDESMAiDS 2011 TS IMAGiNE + 700mb [1LinK]   Tue Jul 12, 2011 12:30 am

BRiDESMAiDS 2011 TS IMAGiNE + 700mb [1LinK]
ghafoorahmad wrote:
.
    Bridesmaids 2011 TS READNFO XViD - IMAGiNE {1.36GB} + PRESTiGE {700mb}

.





    Bridesmaids 2011 TS READNFO XViD - IMAGiNE


Code:
  Bridesmaids 2011 TS READNFO XViD - IMAGiNE
********************************************************************************************************************

Ripper ...........: IMAGiNE                                      IMDB Rating.......: 7.7/10                         
Video Codec.......: XVID                                        Release Date......: 27/06/11
Audio Codec.......: MP3                                          Theatre Date......: 13/05/11
Audio Bitrate.....: 128                                          Runtime.......: 1h 57mn
Subtitles.........: NIL                                          Language..........: ENGLISH
Resolution......: 720 x 304                                      IMDb URL..........: http://www.imdb.com/title/tt1478338/


DETAILS:

Video
ID                              : 0
Format                          : MPEG-4 Visual
Format profile                  : Advanced Simple@L5
Format settings, BVOP            : 2
Format settings, QPel            : No
Format settings, GMC            : No warppoints
Format settings, Matrix          : Default (MPEG)
Muxing mode                      : Packed bitstream
Codec ID                        : XVID
Codec ID/Hint                    : XviD
Duration                        : 1h 57mn
Bit rate                        : 1 537 Kbps
Width                            : 720 pixels
Height                          : 304 pixels
Display aspect ratio            : 2.35:1
Frame rate                      : 25.000 fps
Color space                      : YUV
Chroma subsampling              : 4:2:0
Bit depth                        : 8 bits
Scan type                        : Progressive
Compression mode                : Lossy
Bits/(Pixel*Frame)              : 0.281
Stream size                      : 1.26 GiB (92%)
Writing library                  : XviD 61

Audio
ID                              : 1
Format                          : MPEG Audio
Format version                  : Version 1
Format profile                  : Layer 3
Mode                            : Joint stereo
Mode extension                  : MS Stereo
Codec ID                        : 55
Codec ID/Hint                    : MP3
Duration                        : 1h 57mn
Bit rate mode                    : Constant
Bit rate                        : 128 Kbps
Channel(s)                      : 2 channels
Sampling rate                    : 44.1 KHz
Compression mode                : Lossy
Stream size                      : 108 MiB (8%)
Alignment                        : Split accross interleaves
Interleave, duration            : 40 ms (1.00 video frame)
Writing library                  : LAME3.98r

SOURCES:

VIDEOevichnik.v.Vegase.2011.D.TS.avi
AUDIO:N01 Special Friend ;-)

NOTES:

IMAGiNE bringing you another release..........Bridesmaids

Ok here we go with a pretty decent TS release of this much wanted flick .....
Firstly the video.....the base of it was good but needed tweaking and sharpening.However there
was several mins at the start where there was borders and top and bottom and also above the borders there
was a faint line...but otherwise decent a cam.
What we did was made a script with all the settings we needed and loaded it into vdub and cut the video at 21075 and
cropped the borders and line and resize to match the rest of the video....yes AR is off for this part,but only way to
append it unless you wanted the borders.
Then we had to reload the script cut the part we already did and remove the crop command.
Now audio...pretty decent line but syncing was a pita as we found there was missing video when syncing,which makes it harder lol.
Anyway.....10 seconds missing at 12:18  8 seconds missing at the join where we cut the bars frame 21075 ..... and another 11 seconds at 1:33:39.
At one point you'll heard the audio and theres no one moving their mouths...thats where the video should have been and then it kicks back in ....only last
a few secs that part.

Anyway enjoy folks














Code:
http://www.wupload.com/file/48867563

    Bridesmaids 2011 TS XViD - PRESTiGE {700mb}

Code:
File size: 702 MiB
Duration: 1h 57mn
Overall bit rate: 835 Kbps
Audio: English

Video
ID: 0
Format: MPEG-4 Visual
Format profile: Advanced Simple@L5
Format settings, BVOP: 2
Format settings, QPel: No
Format settings, GMC: No warppoints
Format settings, Matrix: Default (H.263)
Muxing mode: Packed bitstream
Codec ID: XVID
Codec ID/Hint: XviD
Duration: 1h 57mn
Bit rate: 697 Kbps
Width: 720 pixels
Height: 304 pixels
Display aspect ratio: 2.35:1
Frame rate: 25.000 fps
Color space: YUV
Chroma subsampling: 4:2:0
Bit depth: 8 bits
Scan type: Progressive
Compression mode: Lossy
Bits/(Pixel*Frame): 0.127
Stream size: 586 MiB (84%)
Writing library: XviD 1.2.0.dev47 (UTC 2006-11-01)

Audio
ID: 1
Format: MPEG Audio
Format version: Version 1
Format profile: Layer 3
Mode: Joint stereo
Codec ID: 55
Codec ID/Hint: MP3
Duration: 1h 57mn
Bit rate mode: Constant
Bit rate: 128 Kbps
Channel(s): 2 channels
Sampling rate: 44.1 KHz
Compression mode: Lossy
Delay relative to video: 26ms
Stream size: 108 MiB (15%)
Alignment: Split accross interleaves
Interleave, duration: 40 ms (1.00 video frame)
Interleave, preload duration: 500 ms












Code:
http://www.wupload.com/file/48867553





[mod]This post has been reviewed and no action was taken - an2400[/mod]
Back to top Go down
 
BRiDESMAiDS 2011 TS IMAGiNE + 700mb [1LinK]
View previous topic View next topic Back to top 
Page 1 of 1
 Similar topics
-
» XOUNTS Style Contest 2011
» Brooklyn NY Spring 2011 Photo Contest
» Mr. Knockaround 2011... it could be you!
» VIP Tickets to CAP 2011
» Future Forward Game Changer Award 2011

Permissions in this forum:You cannot reply to topics in this forum
Warez-BB :: Movies/TV show-
Jump to: