Welcome To warez-bb download forum PPl]
 
HomeRegisterLog in

Share | 
 

 Harry Potter And Deathly Hallows Part 2 + Part 1 (1L)

View previous topic View next topic Go down 
AuthorMessage
ghafoorahmad



Posts : 249
Join date : 2011-06-21

PostSubject: Harry Potter And Deathly Hallows Part 2 + Part 1 (1L)   Sat Jul 16, 2011 6:37 am

Harry Potter And Deathly Hallows Part 2 + Part 1 (1L)







Quote :

Harry Potter and the Deathly Hallows Part 2 2011 TS READNFO XViD - IMAGiNE
********************************************************************************************************************

Ripper ...........: IMAGiNE IMDB Rating.......:8.7/10
Video Codec.......: XVID Release Date......:15/07/11
Audio Codec.......:MP3 Theatre Date......:15/07/11
Audio Bitrate.....:128 Runtime.......:1h 56mn
Subtitles.........:NIL Language..........:ENGLISH
Resolution...... 720 x 304 IMDb URL..........: http://www.imdb.com/title/tt1201607/ [rate:no votes] 6,712 votes




DETAILS:

Video
ID : 0
Format : MPEG-4 Visual
Format profile : Advanced Simple@L5
Format settings, BVOP : 2
Format settings, QPel : No
Format settings, GMC : No warppoints
Format settings, Matrix : Default (MPEG)
Muxing mode : Packed bitstream
Codec ID : XVID
Codec ID/Hint : XviD
Duration : 1h 56mn
Bit rate : 1 991 Kbps
Width : 720 pixels
Height : 304 pixels
Display aspect ratio : 2.35:1
Frame rate : 25.000 fps
Color space : YUV
Chroma subsampling : 4:2:0
Bit depth : 8 bits
Scan type : Progressive
Compression mode : Lossy
Bits/(Pixel*Frame) : 0.364
Stream size : 1.62 GiB (94%)
Writing library : XviD 64

Audio
ID : 1
Format : MPEG Audio
Format version : Version 1
Format profile : Layer 3
Codec ID : 55
Codec ID/Hint : MP3
Duration : 1h 56mn
Bit rate mode : Constant
Bit rate : 128 Kbps
Channel(s) : 2 channels
Sampling rate : 44.1 KHz
Compression mode : Lossy
Stream size : 107 MiB (6%)
Alignment : Split accross interleaves
Interleave, duration : 40 ms (1.00 video frame)




SOURCES:

VIDEO: .............. Garri Potter i dari smerti 2chast 2011 CAMRip Thanks
AUDIO: .............. Thanx Matey

NOTES:

IMAGiNE bringing you another release..........
Harry Potter and the Deathly Hallows Part 2...........
Ok here we have Harry Potter Part 8....
The video is pretty nice,
but need to be sharpened
and have the color leveled out....
Few seconds missing here and there,
nothing important but there is
one scene jump so watch out for it
Audio is very nice LiNE
we synced filetered
and muxed to our encode......
Enjoy!






















WUpload (1LinK)
Code:
http://www.wupload.com/file/57764716




Harry Potter 7 Deathly Hallows Part 1 720p BRRip 1GB







Quote :

Harry Potter 7 And The Deathly Hallows Part 1 (2010) 720p BRRip 1GB Bluray bdrip Mediafire Links : Voldemort’s power is growing stronger. He now has control over the Ministry of Magic and Hogwarts. Harry, Ron, and Hermione decide to finish Dumbledore’s work and find the rest of the Horcruxes to defeat the Dark Lord. But little hope remains for the Trio, and the rest of the Wizarding World, so everything they do must go as planned.

Info : Harry Potter 7 And The Deathly Hallows Part 1 (2010) 720p BRRip 1GB Bluray
[FORMAT]:…………………..[ Matroska
[AWARDS]:…………………..[ Nominated for 2 Oscars. Another 15 nominations
[GENRE]:……………………[ Action | Adventure | Fantasy | Mystery
[FILE SIZE]:………………..[ 1000 MiB
[NO OF CDs]:………………..[ 1
[RESOLUTION]:……………….[ 1280*536
[ASPECT RATIO]:……………..[ 2.35:1
[FRAME RATE]:……………….[ 23.976 fps
[LANGUAGE ]:………………..[ English
[SUBTITLES]:………………..[ muxed
[ORIGINAL RUNTIME]:………….[ 02:26:00
[RELEASE RUNTIME]:…………..[ 02:26:00





















WUpload (1LinK)

Back to top Go down
 
Harry Potter And Deathly Hallows Part 2 + Part 1 (1L)
View previous topic View next topic Back to top 
Page 1 of 1
 Similar topics
-
» Potter Invisibility Cloak Sweepstakes
» Pictures to drool over
» Murder Mystery Harry Potter RPG plot
» I know the volcano story is becoming part of history.
» What's your favorite part of the newspaper?

Permissions in this forum:You cannot reply to topics in this forum
Warez-BB :: Movies/TV show-
Jump to: