Welcome To warez-bb download forum PPl]
 
HomeRegisterLog in

Share | 
 

 X-Men First Class 2011 R5 LiNE XViD-IMAGiNE

View previous topic View next topic Go down 
AuthorMessage
ghafoorahmad



Posts : 249
Join date : 2011-06-21

PostSubject: X-Men First Class 2011 R5 LiNE XViD-IMAGiNE    Sat Jul 16, 2011 6:51 am

X-Men First Class 2011 R5 LiNE XViD-IMAGiNE



Quote :

Screenshots:

















Quote :


INFO
Code:
********************************************************************************************************************
X-Men First Class 2011 R5 LiNE READNFO XViD - IMAGiNE
********************************************************************************************************************

Ripper ...........: IMAGiNE IMDB Rating.......: 8.1/10
Video Codec.......: XVID Release Date......: 07/07/11
Audio Codec.......: MP3 Theatre Date......: 03/06/11
Audio Bitrate.....: 128 Runtime.......: 2h 06mn
Subtitles.........: ENGLISH WHEN NEEDED Language..........: ENGLISH
Resolution......: 720 x 288 IMDb URL..........: http://www.imdb.com/title/tt1270798/


DETAILS:

Video
ID : 0
Format : MPEG-4 Visual
Format profile : Advanced Simple@L5
Format settings, BVOP : 2
Format settings, QPel : No
Format settings, GMC : No warppoints
Format settings, Matrix : Default (MPEG)
Muxing mode : Packed bitstream
Codec ID : XVID
Codec ID/Hint : XviD
Duration : 2h 6mn
Bit rate : 1 771 Kbps
Width : 720 pixels
Height : 288 pixels
Display aspect ratio : 2.500
Frame rate : 25.000 fps
Color space : YUV
Chroma subsampling : 4:2:0
Bit depth : 8 bits
Scan type : Progressive
Compression mode : Lossy
Bits/(Pixel*Frame) : 0.342
Stream size : 1.56 GiB (93%)
Writing library : XviD 61

Audio
ID : 1
Format : MPEG Audio
Format version : Version 1
Format profile : Layer 3
Mode : Joint stereo
Mode extension : MS Stereo
Codec ID : 55
Codec ID/Hint : MP3
Duration : 2h 6mn
Bit rate mode : Constant
Bit rate : 128 Kbps
Channel(s) : 2 channels
Sampling rate : 44.1 KHz
Compression mode : Lossy
Stream size : 116 MiB (7%)
Alignment : Split accross interleaves
Interleave, duration : 40 ms (1.00 video frame)
Writing library : LAME3.98r


SOURCES:

VIDEO: .............. X-Men.First.Class.DVD.R5.RELIZLAB Thanks Mate Very Happy
AUDIO: .............. Thanx Matey Razz

NOTES:

IMAGiNE bringing you another release..........
X-Men First Class R5........
Ok here we are with a nice R5 of X-Men First Class...
Source was very nice so not much work was needed there....
We made a script to crop resize and sharpen.....
Then hardcoded subs for all the foreign language Very Happy
The audio is nice LiNE we filtered
synced and muxed to our encode Razz
Enjoy Folks!



~ IMDB ~
Code:
http://www.imdb.com/title/tt1270798/



~ Sample ~
Code:
http://safelinking.net/p/e886554d7d



Download
Code:








Code:
http://www.wupload.com/file/57764722



~~ Please, Say Thanks To Keep This Topic Alive ~~

Back to top Go down
 
X-Men First Class 2011 R5 LiNE XViD-IMAGiNE
View previous topic View next topic Back to top 
Page 1 of 1
 Similar topics
-
» Creating a Sweet Navigation
» Class 4 Softswitch For Rent
» Position
» Cannot locate the class Select in web driver
» XOUNTS Style Contest 2011

Permissions in this forum:You cannot reply to topics in this forum
Warez-BB :: Movies/TV show-
Jump to: