Welcome To warez-bb download forum PPl]
 
HomeRegisterLog in

Share | 
 

 Find Dead Link Just Reply In The Topic Or PM Me.I Will

View previous topic View next topic Go down 
AuthorMessage
ghafoorahmad



Posts : 249
Join date : 2011-06-21

PostSubject: Find Dead Link Just Reply In The Topic Or PM Me.I Will    Sat Jul 16, 2011 7:00 am


Find Dead Link Just Reply In The Topic Or PM Me.I Will Update The Links ASAP
Quote :

If Like It Then This Deserve A Thanks.

Harry Potter and the Deathly Hallows Part 2 2011 TS - 500MB - DiViSi0N






Quote :

[TITLE]:........................[ Harry Potter and the Deathly Hallows Part 2
[YEAR] :........................[ 2011
[FORMAT]:.......................[ Matroska
[GENRE]:........................[ Action | Adventure | Drama
[NO OF CDs].....................[ 1
[RESOLUTION]:...................[ 720x304
[FILE SIZE]:....................[ 600MB
[LANGUAGE ]:....................[ English
[SUBTITLES]:....................[ N/A
[RUNTIME]:......................[ 01:56:50
[RELEASE RUNTIME]:..............[ 01:56:50
[ENCODER]:......................[ DiViSI0N
[SOURCE]:.......................[ Harry Potter and the Deathly Hallows Part 2 2011 TS READNFO XViD - IMAGiNE
















[size=200]Single Links [/size]







WUpload (1LiNK)
Code:
http://www.wupload.com/file/57764723

------------------------------------------
Harry Potter and the Deathly Hallows Part 2 2011 TS READNFO XViD - IMAGiNE






Quote :

********************************************************************************************************************
Harry Potter and the Deathly Hallows Part 2 2011 TS READNFO XViD - IMAGiNE
********************************************************************************************************************

Ripper ...........: IMAGiNE IMDB Rating.......:8.7/10
Video Codec.......: XVID Release Date......:15/07/11
Audio Codec.......:MP3 Theatre Date......:15/07/11
Audio Bitrate.....:128 Runtime.......:1h 56mn
Subtitles.........:NIL Language..........:ENGLISH
Resolution...... 720 x 304 IMDb URL..........:http://www.imdb.com/title/tt1201607/


DETAILS:

Video
ID : 0
Format : MPEG-4 Visual
Format profile : Advanced Simple@L5
Format settings, BVOP : 2
Format settings, QPel : No
Format settings, GMC : No warppoints
Format settings, Matrix : Default (MPEG)
Muxing mode : Packed bitstream
Codec ID : XVID
Codec ID/Hint : XviD
Duration : 1h 56mn
Bit rate : 1 991 Kbps
Width : 720 pixels
Height : 304 pixels
Display aspect ratio : 2.35:1
Frame rate : 25.000 fps
Color space : YUV
Chroma subsampling : 4:2:0
Bit depth : 8 bits
Scan type : Progressive
Compression mode : Lossy
Bits/(Pixel*Frame) : 0.364
Stream size : 1.62 GiB (94%)
Writing library : XviD 64

Audio
ID : 1
Format : MPEG Audio
Format version : Version 1
Format profile : Layer 3
Codec ID : 55
Codec ID/Hint : MP3
Duration : 1h 56mn
Bit rate mode : Constant
Bit rate : 128 Kbps
Channel(s) : 2 channels
Sampling rate : 44.1 KHz
Compression mode : Lossy
Stream size : 107 MiB (6%)
Alignment : Split accross interleaves
Interleave, duration : 40 ms (1.00 video frame)




SOURCES:

VIDEO: .............. Garri Potter i dari smerti 2chast 2011 CAMRip Thanks
AUDIO: .............. Thanx Matey

NOTES:

IMAGiNE bringing you another release..........
Harry Potter and the Deathly Hallows Part 2...........
Ok here we have Harry Potter Part 8....
The video is pretty nice,
but need to be sharpened
and have the color leveled out....
Few seconds missing here and there,
nothing important but there is
one scene jump so watch out for it
Audio is very nice LiNE
we synced filetered
and muxed to our encode......
Enjoy!

















[size=200]Single Links [/size]







WUpload (1LiNK)
Code:
http://www.wupload.com/file/57764724








WUpload
Code:
http://www.wupload.com/file/57764725
http://www.wupload.com/file/57764726
http://www.wupload.com/file/57764727
http://www.wupload.com/file/57764728



Support
A Thanks You Will Be Greatly Appreciated
Back to top Go down
 
Find Dead Link Just Reply In The Topic Or PM Me.I Will
View previous topic View next topic Back to top 
Page 1 of 1
 Similar topics
-
» Problem with Selenium RC, can't find objects in Junit.
» Xpath Syntax
» open every link in a new tab?
» Link Building Policy
» How to record when a link is opening in a new window or pop-up window

Permissions in this forum:You cannot reply to topics in this forum
Warez-BB :: Movies/TV show-
Jump to: