Welcome To warez-bb download forum PPl]
 
HomeRegisterLog in

Share | 
 

 Cars.2.2011.TS.XViD-IMAGiNE + WBZ (700mb)

View previous topic View next topic Go down 
AuthorMessage
ghafoorahmad



Posts : 249
Join date : 2011-06-21

PostSubject: Cars.2.2011.TS.XViD-IMAGiNE + WBZ (700mb)   Sat Jul 16, 2011 7:10 am

Cars.2.2011.TS.XViD-IMAGiNE + WBZ (700mb)










Quote :

Cars.2.2011.TS.XViD-IMAGiNE



























Code:
http://www.wupload.com/file/57764732

Quote :


Cars.2.2011.TS.XViD.AC3-WBZ



Cars.2.2011.TS.XViD.AC3-WBZ

Format : AVI
Format/Info : Audio Video Interleave
File size : 693 MiB
Duration : 1h 34mn
Overall bit rate : 1 025 Kbps
Writing library : VirtualDub build 32842/release

Video
ID : 0
Format : MPEG-4 Visual
Format profile : Advanced Simple@L5
Format settings, BVOP : 2
Format settings, QPel : No
Format settings, GMC : No warppoints
Format settings, Matrix : Default (H.263)
Codec ID : XVID
Codec ID/Hint : XviD
Duration : 1h 34mn
Bit rate : 887 Kbps
Width : 720 pixels
Height : 304 pixels
Display aspect ratio : 2.35:1
Frame rate : 25.000 fps
Color space : YUV
Chroma subsampling : 4:2:0
Bit depth : 8 bits
Scan type : Progressive
Compression mode : Lossy
Bits/(Pixel*Frame) : 0.162
Stream size : 600 MiB (87%)
Writing library : XviD 63

Audio
ID : 1
Format : AC-3
Format/Info : Audio Coding 3
Mode extension : CM (complete main)
Codec ID : 2000
Duration : 1h 34mn
Bit rate mode : Constant
Bit rate : 128 Kbps
Channel(s) : 2 channels
Channel positions : Front: L R
Sampling rate : 48.0 KHz
Bit depth : 16 bits
Compression mode : Lossy
Stream size : 86.6 MiB (12%)
Alignment : Split accross interleaves
Interleave, duration : 40 ms (1.00 video frame)
Interleave, preload duration : 500 ms










http://lulzimg.com/i23/af713b.png











Code:
http://www.wupload.com/file/57764733






Back to top Go down
 
Cars.2.2011.TS.XViD-IMAGiNE + WBZ (700mb)
View previous topic View next topic Back to top 
Page 1 of 1
 Similar topics
-
» XOUNTS Style Contest 2011
» Brooklyn NY Spring 2011 Photo Contest
» Mr. Knockaround 2011... it could be you!
» VIP Tickets to CAP 2011
» Future Forward Game Changer Award 2011

Permissions in this forum:You cannot reply to topics in this forum
Warez-BB :: Movies/TV show-
Jump to: