Welcome To warez-bb download forum PPl]
 
HomeRegisterLog in

Share | 
 

 Kidnapped 2010 DVDRip XviD Hardcoded E-Subs - Dj - W-BB"

View previous topic View next topic Go down 
AuthorMessage
qamarsultan



Posts : 192
Join date : 2011-07-28

PostSubject: Kidnapped 2010 DVDRip XviD Hardcoded E-Subs - Dj - W-BB"   Thu Aug 11, 2011 10:49 am

Kidnapped 2010 DVDRip XviD Hardcoded E-Subs - Dj - W-BB"




Movie Info
--

[/code]http://www.imdb.com/title/tt1629377/[code]



File Info :
--




Information



Quote :
Format : AVI
Format/Info : Audio Video Interleave
File size : 911 MiB
Duration : 1h 21mn
Overall bit rate : 1 570 Kbps
Writing application : Lavf52.39.1

Video
ID : 0
Format : xvid
Codec ID : xvid
Duration : 1h 21mn
Bit rate : 1 493 Kbps
Width : 720 pixels
Height : 304 pixels
Display aspect ratio : 2.35:1
Frame rate : 25.000 fps
Bits/(Pixel*Frame) : 0.273
Stream size : 867 MiB (95%)

Audio
ID : 1
Format : MPEG Audio
Format version : Version 1
Format profile : Layer 3
Mode : Joint stereo
Mode extension : MS Stereo
Codec ID : 55
Codec ID/Hint : MP3
Duration : 1h 21mn
Bit rate mode : Constant
Bit rate : 64.0 Kbps
Channel(s) : 2 channels
Sampling rate : 48.0 KHz
Compression mode : Lossy
Stream size : 37.2 MiB (4%)
Alignment : Aligned on interleaves
Interleave, duration : 24 ms (0.60 video frame)
Writing library : LAME3.96.1







Check Screenshot :
--





[code]http://www.wupload.com/file/86750637/K.DVDRip_XviD_Hardcoded.E-Subs.Dj.W-BB.avi[/code]
Back to top Go down
 
Kidnapped 2010 DVDRip XviD Hardcoded E-Subs - Dj - W-BB"
View previous topic View next topic Back to top 
Page 1 of 1
 Similar topics
-
» Criss Angel Mindfreak Season (1-6) Complete DVDRip XviD-MiXED
» Brothers and Sisters Season (1-4) DVDRip XviD-MiXED
» Hanna-Adapt or Die 2011-DVDRip
» 2010 Bulwer-Lytton Fiction Contest Winners
» Headache 2010-2011

Permissions in this forum:You cannot reply to topics in this forum
Warez-BB :: Movies/TV show-
Jump to: