Welcome To warez-bb download forum PPl]
 
HomeRegisterLog in

Share | 
 

 "Scream Of The Banshee 2011 DVDRip XviD-miguel

View previous topic View next topic Go down 
AuthorMessage
qamarsultan



Posts : 192
Join date : 2011-07-28

PostSubject: "Scream Of The Banshee 2011 DVDRip XviD-miguel   Thu Aug 11, 2011 10:53 am

"Scream Of The Banshee 2011 DVDRip XviD-miguel"





Movie Info
--

Code:
http://www.imdb.com/title/tt1548628



File Info :
--




Quote :
Director......: Steven C. Miller
Writers.......: Anthony C. Ferrante, Anthony C. Ferrante
Duration......: 90 min.

Pilot :
An archeology professor unearths a dangerous artifact, unwittingly releasing a creature that is able to kill with the power of
its bone-splitting scream.

Cats :
Monica Acosta ... Detective
Eric F. Adams ... Samuel Page
Marcelle Baer ... Shayla Whelan
Edrick Browne ... Officer Sioux
Leanne Cochran ... Janie
Thomas C. Daniel ... Young Duncan
Kasey Amanda Emas ... School Girl (as Kasey Amanda)
Todd Haberkorn ... Otto
Lucy Hale ... Lauren Abbott
Lance Henriksen ... Broderick Duncan
Garrett Hines ... Kurtis
Lauren Holly ... Professor Isla Whelan
Kayden Kessler ... Jenko Rodriguez
Don Lincoln ... Detective
Kim Ormiston ... The Banshee | Woman in the Red Cape

Data Technical :
!!! SAMPLE !!!
Audio.....: English
Subtitles.: None
Format : AVI
Format/Info : Audio Video Interleave
File size : 789 MiB
Duration : 1h 30mn
Overall bit rate : 1 226 Kbps
Writing library : VirtualDub build 32842/release
Video
ID : 0
Format : MPEG-4 Visual
Format profile : Advanced Simple@L5
Format settings, BVOP : Yes
Format settings, QPel : No
Format settings, GMC : No warppoints
Format settings, Matrix : Default (H.263)
Muxing mode : Packed bitstream
Codec ID : XVID
Codec ID/Hint : XviD
Duration : 1h 30mn
Bit rate : 958 Kbps
Width : 624 pixels
Height : 352 pixels
Display aspect ratio : 16:9
Frame rate : 29.970 fps
Color space : YUV
Chroma subsampling : 4:2:0
Bit depth : 8 bits
Scan type : Progressive
Bits/(Pixel*Frame) : 0.146
Stream size : 617 MiB (78%)
Writing library : XviD 63
Audio
ID : 1
Format : MPEG Audio
Format version : Version 1
Format profile : Layer 3
Mode : Joint stereo
Codec ID : 55
Codec ID/Hint : MP3
Duration : 1h 30mn
Bit rate mode : Constant
Bit rate : 256 Kbps
Channel(s) : 2 channels
Sampling rate : 48.0 KHz
Stream size : 165 MiB (21%)
Alignment : Split accross interleaves
Interleave, duration : 33 ms (1.00 video frame)
Interleave, preload duration : 500 ms
Writing library : LAME3.98 (beta)





Check Screenshot :
--







Code:
http://www.wupload.com/file/86750709/S.Of_T.B.DVDRip.XviD-miguel_ENG.avi
Back to top Go down
 
"Scream Of The Banshee 2011 DVDRip XviD-miguel
View previous topic View next topic Back to top 
Page 1 of 1
 Similar topics
-
» Hanna-Adapt or Die 2011-DVDRip
» Criss Angel Mindfreak Season (1-6) Complete DVDRip XviD-MiXED
» Brothers and Sisters Season (1-4) DVDRip XviD-MiXED
» XOUNTS Style Contest 2011
» Brooklyn NY Spring 2011 Photo Contest

Permissions in this forum:You cannot reply to topics in this forum
Warez-BB :: Movies/TV show-
Jump to: