Welcome To warez-bb download forum PPl]
 
HomeRegisterLog in

Share | 
 

 "Womb 2010 DVDRip XviD-miguel

View previous topic View next topic Go down 
AuthorMessage
qamarsultan



Posts : 192
Join date : 2011-07-28

PostSubject: "Womb 2010 DVDRip XviD-miguel   Thu Aug 11, 2011 10:54 am

"Womb 2010 DVDRip XviD-miguel"






Movie Info
--

Code:
http://www.imdb.com/title/tt1216520



File Info :
--



Quote :
Format : AVI
Format/Info : Audio Video Interleave
File size : 702 MiB
Duration : 53mn 52s
Overall bit rate : 1 821 Kbps
Writing application : Nandub v1.0rc2
Writing library : Nandub build 1853/release
Video
ID : 0
Format : MPEG-4 Visual
Format profile : Advanced Simple@L5
Format settings, BVOP : Yes
Format settings, QPel : No
Format settings, GMC : No warppoints
Format settings, Matrix : Default (H.263)
Codec ID : XVID
Codec ID/Hint : XviD
Duration : 53mn 52s
Bit rate : 1 367 Kbps
Width : 640 pixels
Height : 272 pixels
Display aspect ratio : 2.35:1
Frame rate : 25.000 fps
Color space : YUV
Chroma subsampling : 4:2:0
Bit depth : 8 bits
Scan type : Progressive
Bits/(Pixel*Frame) : 0.314
Stream size : 527 MiB (75%)
Writing library : XviD 1.2.1 (UTC 2008-12-04)
Audio
ID : 1
Format : AC-3
Format/Info : Audio Coding 3
Mode extension : CM (complete main)
Codec ID : 2000
Duration : 53mn 52s
Bit rate mode : Constant
Bit rate : 448 Kbps
Channel(s) : 6 channels
Channel positions : Front: L C R, Side: L R, LFE
Sampling rate : 48.0 KHz
Bit depth : 16 bits
Video delay : 8ms
Stream size : 173 MiB (25%)
Alignment : Split accross interleaves
Interleave, duration : 96 ms (2.40 video frames)
Interleave, preload duration : 500 ms



Check Screenshot :
--


[img]http://imgcrave.com/u/sJCv.jpg[/img



Code:
http://www.wupload.com/file/86750725/W.CD1_DVDRip.XviD-miguel_ENG.avi
http://www.wupload.com/file/86750726/W.CD2_DVDRip.XviD-miguel_ENG.avi
Back to top Go down
 
"Womb 2010 DVDRip XviD-miguel
View previous topic View next topic Back to top 
Page 1 of 1
 Similar topics
-
» Criss Angel Mindfreak Season (1-6) Complete DVDRip XviD-MiXED
» Brothers and Sisters Season (1-4) DVDRip XviD-MiXED
» Hanna-Adapt or Die 2011-DVDRip
» 2010 Bulwer-Lytton Fiction Contest Winners
» Headache 2010-2011

Permissions in this forum:You cannot reply to topics in this forum
Warez-BB :: Movies/TV show-
Jump to: